Udo lindenberg singles

Album des Jahres, Mann des Jahres, Düsseldorfer des Jahres - so galoppieren wir Richtung Silvester, mit unserem favourite Panik-Adventskalender des Jahres: “Alles, was wir gesucht haben, haben wir in den Kindern und ihren Stimmen gefunden” schwärmt Felicia Taylor, Produzentin des CD Projekts. Tansania,ein Staat in Ostafrika am Indischen Ozean.

Udo lindenberg singles-11

Herzliches Kinderlachen, pure Lebensfreude, große Begeisterung – tolle Stimmen, die anstecken und mitreißen.

Die Kinder lieben es zu singen, zu klatschen, haben Spaß und sind voller Motivation.

Der Astronaut muss weiter Read offset correction : 30Overread into Lead-In and Lead-Out : No Fill up missing offset samples with silence : Yes Delete leading and trailing silent blocks : No Null samples used in CRC calculations : Yes Used interface : Native Win32 interface for Win NT & 2000 Track | Start | Length | Start sector | End sector --------------------------------------------------------- 1 | .00 | .45 | 0 | 17744 2 | .45 | .32 | 17745 | 37201 3 | .02 | .37 | 37202 | 55688 4 | .39 | .11 | 55689 | 74974 5 | .50 | .44 | 74975 | 94893 6 | .19 | .28 | 94894 | 114196 7 | .47 | .32 | 114197 | 132153 8 | .04 | .47 | 132154 | 151250 9 | .51 | .47 | 151251 | 171397 10 | .23 | .67 | 171398 | 196214 11 | .15 | .72 | 196215 | 222086 12 | .12 | .26 | 222087 | 241537 13 | .38 | .03 | 241538 | 264565 14 | .41 | .61 | 264566 | 279476 15 | .27 | .36 | 279477 | 297212 16 | .63 | .06 | 297213 | 317918Track 1 accurately ripped (confidence 2) [1BBF67FB] (AR v2)Track 2 accurately ripped (confidence 2) [2622D0DE] (AR v2)Track 3 accurately ripped (confidence 2) [2552F265] (AR v2)Track 4 accurately ripped (confidence 2) [F14CD5E4] (AR v2)Track 5 accurately ripped (confidence 2) [B4B800D9] (AR v2)Track 6 accurately ripped (confidence 2) [85A72420] (AR v2)Track 7 accurately ripped (confidence 2) [DBB60EDB] (AR v2)Track 8 accurately ripped (confidence 2) [9DBD0F45] (AR v2)Track 9 accurately ripped (confidence 2) [3505055A] (AR v2)Track 10 accurately ripped (confidence 2) [44F9CB0B] (AR v2)Track 11 accurately ripped (confidence 2) [F2EB8A31] (AR v2)Track 12 accurately ripped (confidence 2) [2EF00EF6] (AR v2)Track 13 accurately ripped (confidence 2) [92CCF0CF] (AR v2)Track 14 accurately ripped (confidence 2) [B88113C0] (AR v2)Track 15 accurately ripped (confidence 2) [7007196D] (AR v2)Track 16 accurately ripped (confidence 2) [2A88F16C] (AR v2)FILE: Udo Lindenberg - Stark wie Zwei (Platin Edition)Size: 471919676 Hash: 05EC77C5555A2B8DB577298D9DAD6A4A Accuracy: -m0 Conclusion: CDDA 100% Signature: E33F986CA10409B4904A428EB2BD06D1619B6FBB[CUETools log; Date: ; Version: 2.1.4][CTDB TOCID: Z0a NApwx12Oq Hs Jr MALDm ZC5Jw0-] found.

Sie sind alle stolz einen Beitrag für ihre eigene bessere Zukunft in dieser Welt zu leisten. Diese Art zu leben ist so geil, das müsste eigentlich immer so weitergehen." (Udo Lindenberg) In zehn Tagen erscheint das Vermächtnis des Panik-Paten.

Die CD Produktion ist kostenlos für den Good Hope Centre Förderverein und der Erlöse aus dem Verkauf geht an "Happy Watoto Homes and Schools". Dieser Song ist eine Hymne an das Leben und die weltweiten Connections, über alle Grenzen hinweg. Und fröhlich grüßt das Panikteam "Lässig hat Udo Lindenberg auch in diesem Jahr mal wieder klargemacht, dass er längst mehr ist als nur ein erfolgreicher Musiker. Dein Panikteam"Unsre Füße müssen weiter, unsre Herzen bleiben hier bei euch..." Die Hymne aufs Hierbleiben singt Euch die Nachtigall in 9 Tagen wieder: Die Live-DVD zur Tour 2016 ab 2. Die Stadionshow des deutschen King of Rock'n' Roll und seinem legendären Panikorchester, für die Ewigkeit festgehalten auf DVD/Blu Ray.

Track [ CRC | V2 ] Status 01 [89029897|1bbf67fb] (23+02/25) Accurately ripped 02 [f21ce48f|2622d0de] (23+02/25) Accurately ripped 03 [fc29bab9|2552f265] (23+02/25) Accurately ripped 04 [e0c787d7|f14cd5e4] (23+02/25) Accurately ripped 05 [5fadf923|b4b800d9] (23+02/25) Accurately ripped 06 [362954ed|85a72420] (23+02/25) Accurately ripped 07 [658c6c13|dbb60edb] (23+02/25) Accurately ripped 08 [bbcb531b|9dbd0f45] (23+02/25) Accurately ripped 09 [cb17379a|3505055a] (23+02/25) Accurately ripped 10 [63457e01|44f9cb0b] (23+02/25) Accurately ripped 11 [d7cdf26a|f2eb8a31] (23+02/25) Accurately ripped 12 [9ee34686|2ef00ef6] (23+02/25) Accurately ripped 13 [9e1e0ff0|92ccf0cf] (23+02/25) Accurately ripped 14 [0fb3f926|b88113c0] (23+02/25) Accurately ripped 15 [20d261f5|7007196d] (23+02/25) Accurately ripped 16 [5e7cb89f|2a88f16c] (23+02/25) Accurately ripped Track Peak [ CRC32 ] [W/O NULL] [ LOG ] -- 100,0 [F2C8F71B] [F79E3785] CRC32 01 98,8 [4A6E8A0E] [F4E79375] 02 98,8 [A109EF79] [EE0F2CEC] 03 98,8 [572351A9] [B56B6A0B] 04 98,8 [DC725408] [E98502BE] 05 98,8 [2C62FCDC] [5AB4F996] 06 98,8 [2AFE81F5] [C99F5384] 07 100,0 [9D1257C0] [5E986DD8] 08 98,7 [E2850788] [DA95702D] 09 98,8 [9D23A409] [BE1C8878] 10 98,8 [372F4BBF] [F21B8D0A] 11 98,7 [D4F3D75F] [E4403417] 12 100,0 [6E2DC4C7] [7FAFAF89] 13 98,4 [4049E1D1] [518E5FD9] 14 100,0 [EE45A267] [A61A70CD] 15 100,0 [151991B1] [574956BA] 16 91,7 [D9B8038F] [976BF227] 1.

Track | CTDB Status 1 | (7/7) Accurately ripped 2 | (7/7) Accurately ripped 3 | (7/7) Accurately ripped 4 | (7/7) Accurately ripped 5 | (7/7) Accurately ripped 6 | (7/7) Accurately ripped 7 | (7/7) Accurately ripped 8 | (7/7) Accurately ripped 9 | (7/7) Accurately ripped 10 | (7/7) Accurately ripped 11 | (7/7) Accurately ripped 12 | (7/7) Accurately ripped 13 | (7/7) Accurately ripped 14 | (7/7) Accurately ripped 15 | (7/7) Accurately ripped 16 | (7/7) Accurately ripped[Accurate Rip ID: 0028b7e8-01ec54ef-ec108e10] found.

liebe panikfamilie da draussen, und da drinnen deep in my heart, brothers and sisters, lets celebrate!! Bin ja so happy, heute is das neue panikbaby endlich da, drei jahre power und liebe, olympischer kreativ-exzess von unsrer ganzen überirdischen galaxo-gang sind da drauf, wow, was fuer sweet memories an die geilste tour meines lebens - hammer.

In Sichtweite des Kilimanjaros, zwischen den Städten Arusha und Moshi liegt Ngorika, dort befindet sich, “Happy Watoto Homes and Schools”, - Waisenhaus, Kinderheim, Kindergarten und Grundschule in einem.

Damit sichern auch Sie nachhaltig den Unterhalt , sowie die Medizinische Versorgung von über 300 Kindern denen wir als "Good Hope Centre e. Für open minds and open hearts, für eine faire Zukunft, gegen Rassismus und Nationalismus, für eine bunte fröhliche Republik. Enjoy the Party: und einem Schnipsel von "Reeperbahn LIVE 2016" - jetz sind's nur noch 8 Tage bis zum Release!! Er ist letztlich das, was man im Englischen ' A Character' nennt; Jemand, der auf eine sehr eigene Art und Weise immer mal wieder aus der Reihe tanzt.

Wo alle auf die Bühne kommen, Adel Tawil und Bülent Ceylan, Max Herre, und in dieser LIVE-Version von 2016: Gentleman, Daniel Wirtz und Ole Feddersen! Stärker als die Zeit LIVE, das neue Panik-Ding zum Abheben. Lindenberg ist ein Paradiesvogel im oft grauen Kulturbetrieb, und die sind hierzulande rar", so die Jury in ihrer Begründung.